18 posts / 0 new / Last post
#1  August 10, 2019 - 2:12am
NitroJuice's picture
Offline
Joined: Aug 2019
Posts: 5
Kudos: 0

Hi! Everything looks and works very fine after setting ATV4K + Infuse 6 Pro + LGOLED55C8. But after tvOS 13 beta update i experienced playback shuttering like very low FPS especially on very resourceful movies. Looks like performance issue. VLC works fine but picture is worser that on great Infuse. Anybody knows about this problem and how to fix it?

  August 12, 2019 - 11:37am
NC Bullseye's picture
Moderator
Online
Joined: May 2016
Posts: 2,342
Kudos: 355

Just curious, your title says iOS and the body of your post says tvOS, which one are you talking about?

•Just Another Infuse User• •Not An Employee Of Firecore• •Certified Curmudgeon•

  August 12, 2019 - 12:05pm
james's picture
Staff
Offline
Joined: Jun 2008
Posts: 13,573
Kudos: 1,113

This appears to be a new issue in the current beta, and something we're looking into.

Infuse 6 for iOS and Apple TV is now available!

  August 12, 2019 - 4:06pm
NitroJuice's picture
Offline
Joined: Aug 2019
Posts: 5
Kudos: 0
  NC Bullseye wrote:

Just curious, your title says iOS and the body of your post says tvOS, which one are you talking about?

Sorry, I mean tvOS of course. I happy with Infuse, great picture quality, but now i want to throw ATV4K from a window because of lags. I hope DEV guys will find a solution

  August 14, 2019 - 11:50am
AndreyBulatov's picture
Offline
Joined: Aug 2019
Posts: 3
Kudos: 0

I have the same problem, but it started a while after the update. It looks like the picture slows down slightly and then accelerates in every frame.

  August 14, 2019 - 12:02pm
NC Bullseye's picture
Moderator
Online
Joined: May 2016
Posts: 2,342
Kudos: 355
  AndreyBulatov wrote:

I have the same problem, but it started a while after the update. It looks like the picture slows down slightly and then accelerates in every frame.

It may help if you include the OS beta number and Infuse release numbers since problems are so fluid when working with beta software.

•Just Another Infuse User• •Not An Employee Of Firecore• •Certified Curmudgeon•

  August 14, 2019 - 12:07pm
AndreyBulatov's picture
Offline
Joined: Aug 2019
Posts: 3
Kudos: 0
  NC Bullseye wrote:

It may help if you include the OS beta number and Infuse release numbers since problems are so fluid when working with beta software.

tvOS 13 beta 6 (17J5549c)
Infuse Pro 6.1.4 (2687)

  August 15, 2019 - 10:04am
piou44's picture
Offline
Joined: Dec 2017
Posts: 16
Kudos: 1

all film in 4k + dolby digital does not work properly

  August 15, 2019 - 10:10am
NC Bullseye's picture
Moderator
Online
Joined: May 2016
Posts: 2,342
Kudos: 355
  piou44 wrote:

all film in 4k + dolby digital does not work properly

It may help if you include the OS beta number and Infuse release numbers since problems are so fluid when working with beta software.

•Just Another Infuse User• •Not An Employee Of Firecore• •Certified Curmudgeon•

  August 15, 2019 - 11:18am
piou44's picture
Offline
Joined: Dec 2017
Posts: 16
Kudos: 1
  NC Bullseye wrote:

It may help if you include the OS beta number and Infuse release numbers since problems are so fluid when working with beta software.

tvOS 13 beta 6 (17J5549c)
Infuse Pro 6.1.4

I just tested a film remux and then the same film encoded with handbrake

-the film remux does not pass,
-and the film with handbrake and the sound not touched works perfectly
-the video bitrate is unrelated, I just tested a remux movie with 62.2 Mb / s and no problem

I do not understand this problem

HANDBRAKE

ID : 1
Format : HEVC
Format/Info : High Efficiency Video Coding
Profil du format : Main 10@L5@Main
Identifiant du codec : V_MPEGH/ISO/HEVC
Largeur : 3 840 pixels
Hauteur : 1 600 pixels
Format à l'écran : 2,40:1
Type d'images/s : Constant
Images par seconde : 23,976 (24000/1001) Im/s
Espace de couleurs : YUV
Sous-échantillonnage de la chrominance : 4:2:0
Profondeur des couleurs : 10 bits
Bibliothèque utilisée : x265 2.9:[Windows][GCC 8.2.0][64 bit] 10bit
Paramètres d'encodage : cpuid=1111039 / frame-threads=3 / numa-pools=8 / wpp / no-pmode / no-pme / no-psnr / no-ssim / log-level=2 / input-csp=1 / input-res=3840x1600 / interlace=0 / total-frames=0 / level-idc=0 / high-tier=1 / uhd-bd=0 / ref=3 / no-allow-non-conformance / no-repeat-headers / annexb / no-aud / no-hrd / info / hash=0 / no-temporal-layers / open-gop / min-keyint=24 / keyint=240 / gop-lookahead=0 / bframes=4 / b-adapt=0 / b-pyramid / bframe-bias=0 / rc-lookahead=15 / lookahead-slices=8 / scenecut=40 / radl=0 / no-intra-refresh / ctu=64 / min-cu-size=8 / no-rect / no-amp / max-tu-size=32 / tu-inter-depth=1 / tu-intra-depth=1 / limit-tu=0 / rdoq-level=0 / dynamic-rd=0.00 / no-ssim-rd / signhide / no-tskip / nr-intra=0 / nr-inter=0 / no-constrained-intra / strong-intra-smoothing / max-merge=2 / limit-refs=3 / no-limit-modes / me=1 / subme=2 / merange=57 / temporal-mvp / weightp / no-weightb / no-analyze-src-pics / deblock=0:0 / sao / no-sao-non-deblock / rd=2 / no-early-skip / rskip / fast-intra / no-tskip-fast / no-cu-lossless / no-b-intra / no-splitrd-skip / rdpenalty=0 / psy-rd=2.00 / psy-rdoq=0.00 / no-rd-refine / no-lossless / cbqpoffs=0 / crqpoffs=0 / rc=abr / bitrate=15000 / qcomp=0.60 / qpstep=4 / stats-write=0 / stats-read=0 / ipratio=1.40 / pbratio=1.30 / aq-mode=1 / aq-strength=1.00 / cutree / zone-count=0 / no-strict-cbr / qg-size=32 / no-rc-grain / qpmax=69 / qpmin=0 / no-const-vbv / sar=1 / overscan=0 / videoformat=5 / range=0 / colorprim=9 / transfer=16 / colormatrix=9 / chromaloc=0 / display-window=0 / max-cll=0,0 / min-luma=0 / max-luma=1023 / log2-max-poc-lsb=8 / vui-timing-info / vui-hrd-info / slices=1 / no-opt-qp-pps / no-opt-ref-list-length-pps / no-multi-pass-opt-rps / scenecut-bias=0.05 / no-opt-cu-delta-qp / no-aq-motion / no-hdr / no-hdr-opt / no-dhdr10-opt / no-idr-recovery-sei / analysis-reuse-level=5 / scale-factor=0 / refine-intra=0 / refine-inter=0 / refine-mv=0 / no-limit-sao / ctu-info=0 / no-lowpass-dct / refine-mv-type=0 / copy-pic=1 / max-ausize-factor=1.0 / no-dynamic-refine / no-single-sei
Default : Oui
Forced : Non
Gamme de couleurs : Limited
Coordonnées de chromaticité : BT.2020
Caractéristiques du transfert : PQ
Coefficients de la matrice : BT.2020 non-constant

ID : 2
Format : AC-3
Format/Info : Audio Coding 3
Nom commercial : Dolby Digital
Identifiant du codec : A_AC3
Type de débit : Constant
Débit : 640 kb/s
Canaux : 6 canaux
ChannelLayout : L R C LFE Ls Rs
Echantillonnage : 48,0 kHz
Images par seconde : 31,250 Im/s (1536 SPF)
Profondeur des couleurs : 16 bits
Mode de compression : Avec perte
Titre : Surround
Langue : Français
ServiceKind/String : Complete Main
Default : Oui
Forced : Non

LLLLLLLLLLLLLLLLLLLLLLLLLLLLLLLLLLLLLLLLLLLLLLLLLLLLLLLLLLLLLLLLLLLLLLLLLLLLLLLLLLLLLLLLLLLLLLLL

REMUX
Vidéo
ID : 1
OriginalSourceMedium_ID/String : 4113 (0x1011)
Format : HEVC
Format/Info : High Efficiency Video Coding
Profil du format : Main 10@L5.1@High
HDR_Format/String : SMPTE ST 2086, HDR10 compatible
Identifiant du codec : V_MPEGH/ISO/HEVC
Durée : 2 h 24 min
Débit : 64,7 Mb/s
Largeur : 3 840 pixels
Hauteur : 2 160 pixels
Format à l'écran : 16/9
Type d'images/s : Constant
Images par seconde : 23,976 (24000/1001) Im/s
Espace de couleurs : YUV
Sous-échantillonnage de la chrominance : 4:2:0 (Type 2)
Profondeur des couleurs : 10 bits
Bits/(Pixel*Image) : 0.325
Taille du flux : 65,3 Gio (99%)
Langue : Anglais
Default : Non
Forced : Non
Gamme de couleurs : Limited
Coordonnées de chromaticité : BT.2020
Caractéristiques du transfert : PQ
Coefficients de la matrice : BT.2020 non-constant
MasteringDisplay_ColorPrimaries : Display P3
MasteringDisplay_Luminance : min: 0.0001 cd/m2, max: 1000 cd/m2
Support d'origine : Blu-ray

Audio
ID : 2
OriginalSourceMedium_ID/String : 4357 (0x1105)
Format : AC-3
Format/Info : Audio Coding 3
Nom commercial : Dolby Digital
Identifiant du codec : A_AC3
Durée : 2 h 24 min
Type de débit : Constant
Débit : 640 kb/s
Canaux : 6 canaux
ChannelLayout : L R C LFE Ls Rs
Echantillonnage : 48,0 kHz
Images par seconde : 31,250 Im/s (1536 SPF)
Profondeur des couleurs : 16 bits
Mode de compression : Avec perte
Taille du flux : 661 Mio (1%)
Titre : Surround 5.1
Langue : Français
ServiceKind/String : Complete Main
Default : Oui
Forced : Non
Support d'origine : Blu-ray

  August 15, 2019 - 12:20pm
piou44's picture
Offline
Joined: Dec 2017
Posts: 16
Kudos: 1

exemple 1
movie that works

Débit global moyen : 46,6 Mb/s
Date d'encodage : UTC 2018-09-24 12:14:02
Application utilisée : MakeMKV v1.12.3 win(x64-release)
Bibliothèque utilisée : libmakemkv v1.12.3 (1.3.5/1.4.7) win(x64-release)

Vidéo
ID : 1
OriginalSourceMedium_ID/String : 4113 (0x1011)
Format : HEVC
Format/Info : High Efficiency Video Coding
Profil du format : Main 10@L5.1@High
HDR_Format/String : SMPTE ST 2086, HDR10 compatible
Identifiant du codec : V_MPEGH/ISO/HEVC
Durée : 2 h 13 min
Débit : 46,0 Mb/s
Largeur : 3 840 pixels
Hauteur : 2 160 pixels
Format à l'écran : 16/9
Type d'images/s : Constant
Images par seconde : 23,976 (24000/1001) Im/s
Espace de couleurs : YUV
Sous-échantillonnage de la chrominance : 4:2:0 (Type 2)
Profondeur des couleurs : 10 bits
Bits/(Pixel*Image) : 0.231
Taille du flux : 42,8 Gio (99%)
Bibliothèque utilisée : ATEME Titan KFE 3.7.3 (4.7.3.1003)
Langue : Anglais
Default : Non
Forced : Non
Gamme de couleurs : Limited
Coordonnées de chromaticité : BT.2020
Caractéristiques du transfert : PQ
Coefficients de la matrice : BT.2020 non-constant
MasteringDisplay_ColorPrimaries : Display P3
MasteringDisplay_Luminance : min: 0.0050 cd/m2, max: 4000 cd/m2
Support d'origine : Blu-ray

Audio
ID : 2
OriginalSourceMedium_ID/String : 4356 (0x1104)
Format : AC-3
Format/Info : Audio Coding 3
Nom commercial : Dolby Digital
Identifiant du codec : A_AC3
Durée : 2 h 13 min
Type de débit : Constant
Débit : 640 kb/s
Canaux : 6 canaux
ChannelLayout : L R C LFE Ls Rs
Echantillonnage : 48,0 kHz
Images par seconde : 31,250 Im/s (1536 SPF)
Profondeur des couleurs : 16 bits
Mode de compression : Avec perte
Taille du flux : 610 Mio (1%)
Titre : Surround 5.1
Langue : Français
ServiceKind/String : Complete Main
Default : Oui
Forced : Non
Support d'origine : Blu-ray

lllllllllllllllllllllllllllllllllllllllllllllllllllllllllllllllllllllllllllllllllllllllllllllllllllllllllllllllllllllllllllllllllllllllllllllllllllll

exemple 2
movie that does not work

Débit global moyen : 42,6 Mb/s
Date d'encodage : UTC 2019-03-29 20:07:24
Application utilisée : MakeMKV v1.14.2 win(x64-release)
Bibliothèque utilisée : libmakemkv v1.14.2 (1.3.5/1.4.7) win(x64-release)

Vidéo
ID : 1
OriginalSourceMedium_ID/String : 4113 (0x1011)
Format : HEVC
Format/Info : High Efficiency Video Coding
Profil du format : Main 10@L5.1@High
HDR_Format/String : SMPTE ST 2086, HDR10 compatible
Identifiant du codec : V_MPEGH/ISO/HEVC
Durée : 2 h 10 min
Débit : 41,9 Mb/s
Largeur : 3 840 pixels
Hauteur : 2 160 pixels
Format à l'écran : 16/9
Type d'images/s : Constant
Images par seconde : 23,976 (24000/1001) Im/s
Espace de couleurs : YUV
Sous-échantillonnage de la chrominance : 4:2:0 (Type 2)
Profondeur des couleurs : 10 bits
Bits/(Pixel*Image) : 0.211
Taille du flux : 38,1 Gio (98%)
Langue : Anglais
Default : Non
Forced : Non
Gamme de couleurs : Limited
Coordonnées de chromaticité : BT.2020
Caractéristiques du transfert : PQ
Coefficients de la matrice : BT.2020 non-constant
MasteringDisplay_ColorPrimaries : Display P3
MasteringDisplay_Luminance : min: 0.0050 cd/m2, max: 4000 cd/m2
MaxCLL : 2782 cd/m2
MaxFALL : 105 cd/m2
Support d'origine : Blu-ray

Audio
ID : 2
OriginalSourceMedium_ID/String : 4355 (0x1103)
Format : AC-3
Format/Info : Audio Coding 3
Nom commercial : Dolby Digital
Identifiant du codec : A_AC3
Durée : 2 h 10 min
Type de débit : Constant
Débit : 640 kb/s
Canaux : 6 canaux
ChannelLayout : L R C LFE Ls Rs
Echantillonnage : 48,0 kHz
Images par seconde : 31,250 Im/s (1536 SPF)
Profondeur des couleurs : 16 bits
Mode de compression : Avec perte
Taille du flux : 595 Mio (2%)
Titre : Surround 5.1
Langue : Français
ServiceKind/String : Complete Main
Default : Oui
Forced : Non
Support d'origine : Blu-ray

lllllllllllllllllllllllllllllllllllllllllllllllllllllllllllllllllllllllllllllllllllllllllllllllllllllllllllllllllllllllllllllllllllllll

exemple 3
movie that does not work

Application utilisée : mkvmerge v35.0.0 ('All The Love In The World') 64-bit
Bibliothèque utilisée : libebml v1.3.9 + libmatroska v1.5.2

Vidéo
ID : 1
Format : HEVC
Format/Info : High Efficiency Video Coding
Profil du format : Main 10@L5.1@High
HDR_Format/String : SMPTE ST 2086, HDR10 compatible
Identifiant du codec : V_MPEGH/ISO/HEVC
Durée : 1 h 40 min
Débit : 58,9 Mb/s
Largeur : 3 840 pixels
Hauteur : 2 160 pixels
Format à l'écran : 16/9
Type d'images/s : Constant
Images par seconde : 23,976 (24000/1001) Im/s
Espace de couleurs : YUV
Sous-échantillonnage de la chrominance : 4:2:0 (Type 2)
Profondeur des couleurs : 10 bits
Bits/(Pixel*Image) : 0.296
Taille du flux : 41,5 Gio (99%)
Langue : Anglais
Default : Non
Forced : Non
Gamme de couleurs : Limited
Coordonnées de chromaticité : BT.2020
Caractéristiques du transfert : PQ
Coefficients de la matrice : BT.2020 non-constant
MasteringDisplay_ColorPrimaries : Display P3
MasteringDisplay_Luminance : min: 0.0001 cd/m2, max: 1000 cd/m2

Audio
ID : 2
Format : AC-3
Format/Info : Audio Coding 3
Nom commercial : Dolby Digital
Identifiant du codec : A_AC3
Durée : 1 h 40 min
Type de débit : Constant
Débit : 640 kb/s
Canaux : 6 canaux
ChannelLayout : L R C LFE Ls Rs
Echantillonnage : 48,0 kHz
Images par seconde : 31,250 Im/s (1536 SPF)
Profondeur des couleurs : 16 bits
Mode de compression : Avec perte
Taille du flux : 461 Mio (1%)
Titre : Surround 5.1
Langue : Français
ServiceKind/String : Complete Main
Default : Oui
Forced : Non

  August 15, 2019 - 2:34pm
piou44's picture
Offline
Joined: Dec 2017
Posts: 16
Kudos: 1

no problem on vlc
identical problem on mrmc

  August 15, 2019 - 2:36pm
JarvisMeier's picture
Beta Tester
Offline
Joined: Dec 2011
Posts: 383
Kudos: 34
  piou44 wrote:

no problem on vlc
identical problem on mrmc

Does VLC support HDR?

  August 15, 2019 - 2:50pm
NitroJuice's picture
Offline
Joined: Aug 2019
Posts: 5
Kudos: 0

Guys, i just upgraded from 17J5549c to 17J5557a and issue is still persists. Infuse 6 Pro 6.1.4 (2687). I hope it helps

  August 15, 2019 - 2:50pm
AndreyBulatov's picture
Offline
Joined: Aug 2019
Posts: 3
Kudos: 0
  JarvisMeier wrote:

Does VLC support HDR?

Nope

  August 15, 2019 - 2:52pm
piou44's picture
Offline
Joined: Dec 2017
Posts: 16
Kudos: 1
  JarvisMeier wrote:

Does VLC support HDR?

vlc does not support hdr

  August 15, 2019 - 3:06pm
JarvisMeier's picture
Beta Tester
Offline
Joined: Dec 2011
Posts: 383
Kudos: 34
  piou44 wrote:

vlc does not support hdr

MrMC and infuse do. It might be the way infuse utilized metal API and MrMC uses OpenGL ES for their acceleration.

  August 16, 2019 - 1:13pm
LeoNatan's picture
Offline
Joined: Aug 2019
Posts: 1
Kudos: 0

I'm seeing this too, but some movie files work better than others.

Mission Impossible Fallout stutters:

General
Unique ID                                : 193093037657587554265041564129198720943 (0x91445DC7A7B01CFCA7133A43D40DC7AF)
Complete name                            : N:\Movies\Mission Impossible Fallout\MI-F.mkv
Format                                   : Matroska
Format version                           : Version 4
File size                                : 70.0 GiB
Duration                                 : 2 h 27 min
Overall bit rate mode                    : Variable
Overall bit rate                         : 67.9 Mb/s
Movie name                               : Mission: Impossible - Fallout
Writing application                      : mkvmerge v28.2.0 ('The Awakening') 64-bit
Writing library                          : libebml v1.3.6 + libmatroska v1.4.9
Cover                                    : Yes
Attachments                              : cover_land.jpg / small_cover.jpg / small_cover_land.jpg / cover.jpg

Video
ID                                       : 1
Format                                   : HEVC
Format/Info                              : High Efficiency Video Coding
Format profile                           : Main 10@L5.1@High
HDR format                               : SMPTE ST 2086, HDR10 compatible
Codec ID                                 : V_MPEGH/ISO/HEVC
Duration                                 : 2 h 27 min
Bit rate                                 : 61.5 Mb/s
Width                                    : 3 840 pixels
Height                                   : 2 160 pixels
Display aspect ratio                     : 16:9
Frame rate mode                          : Constant
Frame rate                               : 23.976 (24000/1001) FPS
Color space                              : YUV
Chroma subsampling                       : 4:2:0 (Type 2)
Bit depth                                : 10 bits
Bits/(Pixel*Frame)                       : 0.309
Stream size                              : 63.3 GiB (90%)
Title                                    : HEVC Video / 61465 kbps / 2160p / 23.976 fps / 16:9 / Main 10 @ Level 5.1 @ High / 4:2:0 / 10 bits / HDR10 / Limited Range / BT.2020
Language                                 : English
Default                                  : Yes
Forced                                   : No
Color range                              : Limited
Color primaries                          : BT.2020
Transfer characteristics                 : PQ
Matrix coefficients                      : BT.2020 non-constant
Mastering display color primaries        : Display P3
Mastering display luminance              : min: 0.0001 cd/m2, max: 1000 cd/m2

Audio #1
ID                                       : 2
Format                                   : MLP FBA 16-ch
Format/Info                              : Meridian Lossless Packing FBA with 16-channel presentation
Commercial name                          : Dolby TrueHD with Dolby Atmos
Codec ID                                 : A_TRUEHD
Duration                                 : 2 h 27 min
Bit rate mode                            : Variable
Bit rate                                 : 5 026 kb/s
Maximum bit rate                         : 8 175 kb/s
Channel(s)                               : 8 channels
Channel layout                           : L R C LFE Ls Rs Lb Rb
Sampling rate                            : 48.0 kHz
Frame rate                               : 1 200.000 FPS (40 SPF)
Compression mode                         : Lossless
Stream size                              : 5.17 GiB (7%)
Title                                    : Dolby TrueHD/Atmos Audio / 7.1 / 48 kHz / 5026 kbps / 24-bit
Language                                 : English
Default                                  : Yes
Forced                                   : No
Number of dynamic objects                : 11
Bed channel count                        : 1 channel
Bed channel configuration                : LFE

Audio #2
ID                                       : 3
Format                                   : AC-3
Format/Info                              : Audio Coding 3
Commercial name                          : Dolby Digital
Codec ID                                 : A_AC3
Duration                                 : 2 h 27 min
Bit rate mode                            : Constant
Bit rate                                 : 224 kb/s
Channel(s)                               : 2 channels
Channel layout                           : L R
Sampling rate                            : 48.0 kHz
Frame rate                               : 31.250 FPS (1536 SPF)
Bit depth                                : 16 bits
Compression mode                         : Lossy
Stream size                              : 236 MiB (0%)
Title                                    : Commentary by Director Christopher McQuarrie and Actor Tom Cruise
Language                                 : English
Service kind                             : Complete Main
Default                                  : No
Forced                                   : No

Audio #3
ID                                       : 4
Format                                   : AC-3
Format/Info                              : Audio Coding 3
Commercial name                          : Dolby Digital
Codec ID                                 : A_AC3
Duration                                 : 2 h 27 min
Bit rate mode                            : Constant
Bit rate                                 : 224 kb/s
Channel(s)                               : 2 channels
Channel layout                           : L R
Sampling rate                            : 48.0 kHz
Frame rate                               : 31.250 FPS (1536 SPF)
Bit depth                                : 16 bits
Compression mode                         : Lossy
Stream size                              : 236 MiB (0%)
Title                                    : Commentary by Director Christopher McQuarrie and Editor Eddie Hamilton
Language                                 : English
Service kind                             : Complete Main
Default                                  : No
Forced                                   : No

Audio #4
ID                                       : 5
Format                                   : AC-3
Format/Info                              : Audio Coding 3
Commercial name                          : Dolby Digital
Codec ID                                 : A_AC3
Duration                                 : 2 h 27 min
Bit rate mode                            : Constant
Bit rate                                 : 224 kb/s
Channel(s)                               : 2 channels
Channel layout                           : L R
Sampling rate                            : 48.0 kHz
Frame rate                               : 31.250 FPS (1536 SPF)
Bit depth                                : 16 bits
Compression mode                         : Lossy
Stream size                              : 236 MiB (0%)
Title                                    : Commentary by Composer Lorne Balfe
Language                                 : English
Service kind                             : Complete Main
Default                                  : No
Forced                                   : No

Audio #5
ID                                       : 6
Format                                   : AC-3
Format/Info                              : Audio Coding 3
Commercial name                          : Dolby Digital
Codec ID                                 : A_AC3
Duration                                 : 2 h 27 min
Bit rate mode                            : Constant
Bit rate                                 : 640 kb/s
Channel(s)                               : 6 channels
Channel layout                           : L R C LFE Ls Rs
Sampling rate                            : 48.0 kHz
Frame rate                               : 31.250 FPS (1536 SPF)
Bit depth                                : 16 bits
Compression mode                         : Lossy
Stream size                              : 675 MiB (1%)
Title                                    : Isolated Score
Language                                 : English
Service kind                             : Complete Main
Default                                  : No
Forced                                   : No

Text #1
ID                                       : 7
Format                                   : PGS
Muxing mode                              : zlib
Codec ID                                 : S_HDMV/PGS
Codec ID/Info                            : Picture based subtitle format used on BDs/HD-DVDs
Duration                                 : 32 min 10 s
Bit rate                                 : 596 b/s
Count of elements                        : 40
Stream size                              : 141 KiB (0%)
Title                                    : Forced for non-English dialogue
Language                                 : English
Default                                  : Yes
Forced                                   : Yes

Text #2
ID                                       : 8
Format                                   : PGS
Muxing mode                              : zlib
Codec ID                                 : S_HDMV/PGS
Codec ID/Info                            : Picture based subtitle format used on BDs/HD-DVDs
Duration                                 : 2 h 19 min
Bit rate                                 : 28.4 kb/s
Count of elements                        : 3111
Stream size                              : 28.3 MiB (0%)
Language                                 : English
Default                                  : No
Forced                                   : No

Text #3
ID                                       : 9
Format                                   : PGS
Muxing mode                              : zlib
Codec ID                                 : S_HDMV/PGS
Codec ID/Info                            : Picture based subtitle format used on BDs/HD-DVDs
Duration                                 : 2 h 19 min
Bit rate                                 : 33.7 kb/s
Count of elements                        : 3747
Stream size                              : 33.5 MiB (0%)
Title                                    : SDH
Language                                 : English
Default                                  : No
Forced                                   : No

Text #4
ID                                       : 10
Format                                   : PGS
Muxing mode                              : zlib
Codec ID                                 : S_HDMV/PGS
Codec ID/Info                            : Picture based subtitle format used on BDs/HD-DVDs
Duration                                 : 2 h 27 min
Bit rate                                 : 78.9 kb/s
Count of elements                        : 6950
Stream size                              : 83.1 MiB (0%)
Title                                    : Commentary by director Christopher McQuarrie and actor Tom Cruise
Language                                 : English
Default                                  : No
Forced                                   : No

Text #5
ID                                       : 11
Format                                   : PGS
Muxing mode                              : zlib
Codec ID                                 : S_HDMV/PGS
Codec ID/Info                            : Picture based subtitle format used on BDs/HD-DVDs
Duration                                 : 2 h 25 min
Bit rate                                 : 80.2 kb/s
Count of elements                        : 6544
Stream size                              : 83.6 MiB (0%)
Title                                    : Commentary by director Christopher McQuarrie and editor Eddie Hamilton
Language                                 : English
Default                                  : No
Forced                                   : No

Text #6
ID                                       : 12
Format                                   : PGS
Muxing mode                              : zlib
Codec ID                                 : S_HDMV/PGS
Codec ID/Info                            : Picture based subtitle format used on BDs/HD-DVDs
Duration                                 : 2 h 21 min
Bit rate                                 : 39.9 kb/s
Count of elements                        : 3662
Stream size                              : 40.3 MiB (0%)
Title                                    : Commentary by composer Lorne Balfe
Language                                 : English
Default                                  : No
Forced                                   : No

Menu
00:00:00.000                             : en:Chapter 1
00:10:37.011                             : en:Chapter 2
00:17:11.405                             : en:Chapter 3
00:26:57.241                             : en:Chapter 4
00:35:56.654                             : en:Chapter 5
00:49:18.414                             : en:Chapter 6
01:00:00.806                             : en:Chapter 7
01:10:23.719                             : en:Chapter 8
01:17:07.289                             : en:Chapter 9
01:28:28.470                             : en:Chapter 10
01:39:09.652                             : en:Chapter 11
01:46:26.547                             : en:Chapter 12
01:55:45.564                             : en:Chapter 13
02:03:10.592                             : en:Chapter 14
02:14:00.908                             : en:Chapter 15
02:19:48.088                             : en:Chapter 16

But Avengers Endgame doesn't stutter and plays smoothly:

General
Unique ID                                : 313984948206546807544793043645340098559 (0xEC374D277CE20E7847CD31CBF4C09FFF)
Complete name                            : N:\Movies\Avengers Endgame\ae.mkv
Format                                   : Matroska
Format version                           : Version 4
File size                                : 51.7 GiB
Duration                                 : 3 h 1 min
Overall bit rate mode                    : Variable
Overall bit rate                         : 40.9 Mb/s
Movie name                               : Avengers: Endgame
Writing application                      : mkvmerge v28.2.0 ('The Awakening') 64-bit
Writing library                          : libebml v1.3.6 + libmatroska v1.4.9
Cover                                    : Yes
Attachments                              : small_cover.jpg / small_cover_land.jpg / cover.jpg / cover_land.jpg

Video
ID                                       : 1
Format                                   : HEVC
Format/Info                              : High Efficiency Video Coding
Format profile                           : Main 10@L5.1@High
HDR format                               : SMPTE ST 2086, HDR10 compatible
Codec ID                                 : V_MPEGH/ISO/HEVC
Duration                                 : 3 h 1 min
Bit rate                                 : 36.0 Mb/s
Width                                    : 3 840 pixels
Height                                   : 2 160 pixels
Display aspect ratio                     : 16:9
Frame rate mode                          : Constant
Frame rate                               : 23.976 (24000/1001) FPS
Color space                              : YUV
Chroma subsampling                       : 4:2:0 (Type 2)
Bit depth                                : 10 bits
Bits/(Pixel*Frame)                       : 0.181
Stream size                              : 45.6 GiB (88%)
Writing library                          : ATEME Titan File 3.9.0 (4.9.0.0)        
Language                                 : English
Default                                  : No
Forced                                   : No
Color range                              : Limited
Color primaries                          : BT.2020
Transfer characteristics                 : PQ
Matrix coefficients                      : BT.2020 non-constant
Mastering display color primaries        : Display P3
Mastering display luminance              : min: 0.0050 cd/m2, max: 4000 cd/m2

Audio
ID                                       : 2
Format                                   : MLP FBA 16-ch
Format/Info                              : Meridian Lossless Packing FBA with 16-channel presentation
Commercial name                          : Dolby TrueHD with Dolby Atmos
Codec ID                                 : A_TRUEHD
Duration                                 : 3 h 1 min
Bit rate mode                            : Variable
Bit rate                                 : 4 777 kb/s
Maximum bit rate                         : 8 430 kb/s
Channel(s)                               : 8 channels
Channel layout                           : L R C LFE Ls Rs Lb Rb
Sampling rate                            : 48.0 kHz
Frame rate                               : 1 200.000 FPS (40 SPF)
Compression mode                         : Lossless
Stream size                              : 6.05 GiB (12%)
Title                                    : Avengers.Endgame.2019.2160p.BluRay.REMUX.HEVC.DTS-HD.MA.TrueHD.7.1.Atmos-FGT
Language                                 : English
Default                                  : Yes
Forced                                   : No
Number of dynamic objects                : 13
Bed channel count                        : 1 channel
Bed channel configuration                : LFE

Text
ID                                       : 3
Format                                   : PGS
Muxing mode                              : zlib
Codec ID                                 : S_HDMV/PGS
Codec ID/Info                            : Picture based subtitle format used on BDs/HD-DVDs
Duration                                 : 3 h 0 min
Bit rate                                 : 33.7 kb/s
Count of elements                        : 5266
Stream size                              : 43.6 MiB (0%)
Title                                    : English-PGS
Language                                 : English
Default                                  : Yes
Forced                                   : No

Menu
00:00:00.000                             : en:Chapter 01
00:08:05.776                             : en:Chapter 02
00:20:01.867                             : en:Chapter 03
00:26:15.448                             : en:Chapter 04
00:36:57.340                             : en:Chapter 05
00:43:20.764                             : en:Chapter 06
00:48:44.254                             : en:Chapter 07
00:57:36.911                             : en:Chapter 08
01:07:12.778                             : en:Chapter 09
01:16:02.683                             : en:Chapter 10
01:26:25.471                             : en:Chapter 11
01:32:20.284                             : en:Chapter 12
01:38:55.846                             : en:Chapter 13
01:48:12.402                             : en:Chapter 14
01:57:27.081                             : en:Chapter 15
02:05:00.242                             : en:Chapter 16
02:15:06.473                             : en:Chapter 17
02:25:50.616                             : en:Chapter 18
02:34:38.102                             : en:Chapter 19
02:43:04.065                             : en:Chapter 20
02:49:05.385                             : en:Chapter 21