5 posts / 0 new / Last post
#1  February 12, 2020 - 1:28am
claudechiu's picture
Offline
Joined: Feb 2020
Posts: 3
Kudos: 0

Dear Sir,

I use Infuse Pro version 6.3 (2932) on iPhone and Apple TV play attached file. This video screen sometime will unusual flash. VLC & sPlayer playing very smooth, no unusual flash. Please help me to check & let me know what happen of this file playing on Infuse Pro.

Please rename the attachment jpg to mp4.

Best Regards,
Claude

  February 12, 2020 - 10:04am
NC Bullseye's picture
Moderator
Online
Joined: May 2016
Posts: 3,144
Kudos: 405

Welcome to the forum!

I'm going out on a limb and say it's an encoding problem because it does the same flashing with Apples QuickTime player. Is that the only video you have that does that?

MediaInfo is an app that gives details on media files it's a free download available at: http://sourceforge.net/projects/mediainfo/ you can post the results here that may help figure out what's going on.

•Just Another Infuse User• •Not An Employee Of Firecore• •Certified Curmudgeon•

  February 12, 2020 - 11:49pm
claudechiu's picture
Offline
Joined: Feb 2020
Posts: 3
Kudos: 0

Thanks for your reply.

This is TV series video. All EP have same problem.

General
Complete name : F:\Movies\Secret.of.The.Three.Kingdoms.EP02.2018.1080p.WEB-DL.x264.AAC-HQC.mp4
Format : MPEG-4
Format profile : Base Media
Codec ID : isom (isom/iso2/avc1/mp41)
File size : 511 MiB
Duration : 45 min 38 s
Overall bit rate : 1 567 kb/s
Writing application : Lavf57.83.100

Video
ID : 1
Format : AVC
Format/Info : Advanced Video Codec
Format profile : High@L4
Format settings : CABAC / 4 Ref Frames
Format settings, CABAC : Yes
Format settings, Reference frames : 4 frames
Codec ID : avc1
Codec ID/Info : Advanced Video Coding
Duration : 45 min 38 s
Bit rate : 1 464 kb/s
Width : 1 920 pixels
Height : 1 072 pixels
Display aspect ratio : 16:9
Frame rate mode : Variable
Frame rate : 25.000 FPS
Minimum frame rate : 12.502 FPS
Maximum frame rate : 90 000.000 FPS
Color space : YUV
Chroma subsampling : 4:2:0
Bit depth : 8 bits
Scan type : Progressive
Bits/(Pixel*Frame) : 0.028
Stream size : 478 MiB (93%)
Codec configuration box : avcC

Audio
ID : 2
Format : AAC LC
Format/Info : Advanced Audio Codec Low Complexity
Codec ID : mp4a-40-2
Duration : 45 min 38 s
Bit rate mode : Constant
Bit rate : 96.0 kb/s
Channel(s) : 2 channels
Channel layout : L R
Sampling rate : 48.0 kHz
Frame rate : 46.875 FPS (1024 SPF)
Compression mode : Lossy
Stream size : 31.3 MiB (6%)
Default : Yes
Alternate group : 1

Best Regards,
Claude

  February 13, 2020 - 9:31am
james's picture
Staff
Offline
Joined: Jun 2008
Posts: 14,402
Kudos: 1,265

Thanks for the sample. We'll see if there's anything we can do here.

Infuse 6 for iOS and Apple TV is now available!

  February 13, 2020 - 7:36pm
claudechiu's picture
Offline
Joined: Feb 2020
Posts: 3
Kudos: 0

Thanks, wait for your good news.

Best Regards,
Claude